Series Bajateloz!

VA – Trance Elements Water (2012)

VA – Trance Elements Water (2012) en descarga directa

Los mejores temas que han caracterizado el Trance actual se reúnen en “Trance Elements 2012”, un álbum triple mezclado por James Brooke anexando temas de la talla de: “Paul van Dyk, Above & Beyond, Ferry Corsten, entre otros más.

descargar descargar

Tracklist:

    CD 1

    TRACK 01 AUDIO
    TITLE “Magnolia”
    PERFORMER “Nuera”
    INDEX 01 00:00:00
    TRACK 02 AUDIO
    TITLE “Vestfold”
    PERFORMER “Robert Nickson pres. RNX”
    INDEX 01 03:54:37
    TRACK 03 AUDIO
    TITLE “Nail The Nile (Hayley Parsons Remix)”
    PERFORMER “Future Disciple”
    INDEX 00 03:54:37
    INDEX 01 07:39:37
    TRACK 04 AUDIO
    TITLE “Better Than Before”
    PERFORMER “Bluestone”
    INDEX 00 03:54:37
    INDEX 01 11:39:37
    TRACK 05 AUDIO
    TITLE “Disintegrate”
    PERFORMER “Matt Lange”
    INDEX 00 03:54:37
    INDEX 01 15:41:25
    TRACK 06 AUDIO
    TITLE “Nothing But Less Than Three”
    PERFORMER “Juventa”
    INDEX 00 03:54:37
    INDEX 01 19:56:25
    TRACK 07 AUDIO
    TITLE “Chords”
    PERFORMER “The Madison”
    INDEX 00 03:54:37
    INDEX 01 23:40:60
    TRACK 08 AUDIO
    TITLE “i Hold On (Maor Levi Club Mix)”
    PERFORMER “Ignas feat. Julie Thompson”
    INDEX 00 03:54:37
    INDEX 01 28:06:56
    TRACK 09 AUDIO
    TITLE “i Pistol Whip”
    PERFORMER “Norin & Rad”
    INDEX 00 03:54:37
    INDEX 01 31:48:10
    TRACK 10 AUDIO
    TITLE “In Your Arms (Rafal Frost Remix)”
    PERFORMER “Andy Moor feat. Jessica Sweetman”
    INDEX 00 03:54:37
    INDEX 01 35:14:20
    TRACK 11 AUDIO
    TITLE “Like These Eyes (Juventa Remix)”
    PERFORMER “Juventa & Answer42″
    INDEX 00 03:54:37
    INDEX 01 39:33:33
    TRACK 12 AUDIO
    TITLE “On My Way To Heaven (Above & Beyond Club Mix)”
    PERFORMER “Above & Beyond feat. Richard Bedford”
    INDEX 00 03:54:37
    INDEX 01 43:12:06
    TRACK 13 AUDIO
    TITLE “Chow Mein”
    PERFORMER “Heatbeat”
    INDEX 00 03:54:37
    INDEX 01 47:19:33
    TRACK 14 AUDIO
    TITLE “Suddenly Summer (Heatbeat Remix)”
    PERFORMER “Armin van Buuren feat. Ana Criado”
    INDEX 00 03:54:37
    INDEX 01 51:12:06
    TRACK 15 AUDIO
    TITLE “The Ocean”
    PERFORMER “Paul van Dyk feat. Arty”
    INDEX 00 03:54:37
    INDEX 01 55:05:04
    TRACK 16 AUDIO
    TITLE “Piercing Quiet (Extended Album Mix)”
    PERFORMER “Tritonal feat. Cristina Soto”
    INDEX 00 03:54:37
    INDEX 01 58:57:52
    TRACK 17 AUDIO
    TITLE “A Million Sounds, A Thousand Smiles”
    PERFORMER “Eco”
    INDEX 00 03:54:37
    INDEX 01 64:01:09
    TRACK 18 AUDIO
    TITLE “paladin”
    PERFORMER “James Dymond”
    INDEX 00 03:54:37
    INDEX 01 67:43:67
    TRACK 19 AUDIO
    TITLE “Nemesis (Uplifting Mix)”
    PERFORMER “Matt Davey”
    INDEX 00 03:54:37
    INDEX 01 71:33:24
    TRACK 20 AUDIO
    TITLE ” Flying Blue”
    PERFORMER “Daniel Kandi & Ferry Tayle”

    CD 2

    TRACK 01 AUDIO
    TITLE “Fat Fly”
    PERFORMER “16 Bit Lolitas”
    INDEX 01 00:00:00
    TRACK 02 AUDIO
    TITLE “Harmony”
    PERFORMER “Adriano Migliorino”
    INDEX 01 04:00:00
    TRACK 03 AUDIO
    TITLE “Flaming June (Jaytech vs. James Grant Remix)”
    PERFORMER “BT”
    INDEX 00 04:00:00
    INDEX 01 07:15:00
    TRACK 04 AUDIO
    TITLE “Broken”
    PERFORMER “Zara feat. Jorge Nava”
    INDEX 00 04:00:00
    INDEX 01 12:15:00
    TRACK 05 AUDIO
    TITLE “Like Home (Ibiza Mix)”
    PERFORMER “George Acosta feat. Lizzie Curious”
    INDEX 00 04:00:00
    INDEX 01 15:45:00
    TRACK 06 AUDIO
    TITLE “Titan”
    PERFORMER “Karanda”
    INDEX 00 04:00:00
    INDEX 01 19:45:24
    TRACK 07 AUDIO
    TITLE “Runway”
    PERFORMER “Bluestone”
    INDEX 00 04:00:00
    INDEX 01 22:57:10
    TRACK 08 AUDIO
    TITLE “Hurricane (Ost & Meyer Remix)”
    PERFORMER “Vast Vision Feat. Fisher”
    INDEX 00 04:00:00
    INDEX 01 27:08:18
    TRACK 09 AUDIO
    TITLE “Live Forever (Shogun Remix)”
    PERFORMER “Ferry Corsten feat. Aruna”
    INDEX 00 04:00:00
    INDEX 01 31:36:12
    TRACK 10 AUDIO
    TITLE “i Lekta”
    PERFORMER “Sean Tyas”
    INDEX 00 04:00:00
    INDEX 01 35:36:12
    TRACK 11 AUDIO
    TITLE “Stadium”
    PERFORMER “Wezz Devall”
    INDEX 00 04:00:00
    INDEX 01 39:02:64
    TRACK 12 AUDIO
    TITLE “Bang The Drum (Omnia Remix)”
    PERFORMER “Ashley Wallbridge feat. Audrey Gallagher”
    INDEX 00 04:00:00
    INDEX 01 43:28:25
    TRACK 13 AUDIO
    TITLE “Varana”
    PERFORMER “Mike Koglin feat. LCK”
    INDEX 00 04:00:00
    INDEX 01 48:06:43
    TRACK 14 AUDIO
    TITLE “Music Box”
    PERFORMER “Andy Duguid feat. Lizzie Curious”
    INDEX 00 04:00:00
    INDEX 01 51:25:06
    TRACK 15 AUDIO
    TITLE “Pure (MaRLo Remix)”
    PERFORMER “Solarstone”
    INDEX 00 04:00:00
    INDEX 01 55:26:61
    TRACK 16 AUDIO
    TITLE “Blind (Vocal Mix)”
    PERFORMER “Alan Morris & Sequentia”
    INDEX 00 04:00:00
    INDEX 01 59:36:37
    TRACK 17 AUDIO
    TITLE “Arcobaleno (Classic Mix)”
    PERFORMER “Sean Tyas & Giuseppe Ottaviani”
    INDEX 00 04:00:00
    INDEX 01 63:43:54
    TRACK 18 AUDIO
    TITLE “Start Again (Juventa Remix)”
    PERFORMER “Will Holland feat. Jeza”
    INDEX 00 04:00:00
    INDEX 01 67:31:08
    TRACK 19 AUDIO
    TITLE “Blossom”
    PERFORMER “Abstract Vision & Elite Electronic”
    INDEX 00 04:00:00
    INDEX 01 71:15:21
    TRACK 20 AUDIO
    TITLE “Coming HomeBlue”
    PERFORMER “TAly & Fila vs Jwaydan”

    CD 3

    TRACK 01 AUDIO
    TITLE “How You Make Me Smile”
    PERFORMER “Jody Wisternoff feat. Pete Josef”
    INDEX 01 00:00:00
    TRACK 02 AUDIO
    TITLE “Under The Wire”
    PERFORMER “Oliver Smith”
    INDEX 01 04:15:00
    TRACK 03 AUDIO
    TITLE “Boundless Energy”
    PERFORMER “Soundprank”
    INDEX 00 04:15:00
    INDEX 01 08:00:00
    TRACK 04 AUDIO
    TITLE “i Life Inside A Cube”
    PERFORMER “Maor Levi”
    INDEX 00 04:15:00
    INDEX 01 11:45:00
    TRACK 05 AUDIO
    TITLE “Astro Ibiza”
    PERFORMER “Gregory Esayan & Shinobi”
    INDEX 00 04:15:00
    INDEX 01 15:45:00
    TRACK 06 AUDIO
    TITLE “The Reach”
    PERFORMER “Audien”
    INDEX 00 04:15:00
    INDEX 01 19:16:62
    TRACK 07 AUDIO
    TITLE “Liberation”
    PERFORMER “Exis”
    INDEX 00 04:15:00
    INDEX 01 23:42:30
    TRACK 08 AUDIO
    TITLE “Somewhere Special (Terry Da Libra Remix)”
    PERFORMER “David Broader”
    INDEX 00 04:15:00
    INDEX 01 27:07:68
    TRACK 09 AUDIO
    TITLE “Azzura (Juventa vs. Willem de Roo Remix)”
    PERFORMER “Boom Jinx & Daniel Kandi”
    INDEX 00 04:15:00
    INDEX 01 31:49:65
    TRACK 10 AUDIO
    TITLE “Caught (Club Mix)”
    PERFORMER “Markus Schulz feat. Adina Butar”
    INDEX 00 04:15:00
    INDEX 01 35:42:38
    TRACK 11 AUDIO
    TITLE “Extra Bacon”
    PERFORMER “Heatbeat”
    INDEX 00 04:15:00
    INDEX 01 39:20:56
    TRACK 12 AUDIO
    TITLE “Slave (Extended)”
    PERFORMER “Tritonal feat. Fisher”
    INDEX 00 04:15:00
    INDEX 01 42:29:43
    TRACK 13 AUDIO
    TITLE “Hattori Hanzo”
    PERFORMER “Sunny Lax”
    INDEX 00 04:15:00
    INDEX 01 47:30:32
    TRACK 14 AUDIO
    TITLE “Progress (Nitrous Oxide Remix)”
    PERFORMER “Oliver Smith”
    INDEX 00 04:15:00
    INDEX 01 51:34:15
    TRACK 15 AUDIO
    TITLE “As It Should”
    PERFORMER “Tenishia & Jan Johnston”
    INDEX 00 04:15:00
    INDEX 01 55:23:19
    TRACK 16 AUDIO
    TITLE “Smoking Gun (Sequentia Remix)”
    PERFORMER “Binary Finary & Genix”
    INDEX 00 04:15:00
    INDEX 01 59:09:08
    TRACK 17 AUDIO
    TITLE “Whatever Happened To Puzzle Piece (John O’Callaghan Mashup)”
    PERFORMER “Mark Leanings vs Space Rockerz & Tania Zygar”
    INDEX 00 04:15:00
    INDEX 01 62:56:06
    TRACK 18 AUDIO
    TITLE “Earth2Self”
    PERFORMER “John O’Callaghan”
    INDEX 00 04:15:00
    INDEX 01 67:48:08
    TRACK 19 AUDIO
    TITLE “Reboot Universe”
    PERFORMER “Brendan B Pres – Factor B”
    INDEX 00 04:15:00
    INDEX 01 71:32:54
    TRACK 20 AUDIO
    TITLE “Flaming June (Paul Van Dyk Remix”
    PERFORMER “BT”

Escrito por: iBiz | Guardado en Electrónica, Música, Trance |




16 queries. 0,194 seconds.